Любовный треугольник / Aaina (Дипак Сарин / Deepak Sareen) [1993, Индия, Мелодрама, DVDRip] MVO (Red Media)

Ответить на тему
 
Автор Сообщение

user ®

Стаж: 12 лет

Сообщений: 15110

Пост Пост: #1 от 19-Июл-2013 00:51

[Цитировать]

Любовный треугольник / Aaina
Страна: Индия
Жанр: Мелодрама
Год выпуска: 1993
Продолжительность: 02:23:21
Перевод: Профессиональный (многоголосый закадровый) Red Media
Cубтитры: нет
Режиссер: Дипак Сарин / Deepak Sareen
В ролях: Джеки Шрофф, Амрита Сингх, Джухи Чавла, Саид Джаффри, Майя Алагх, Дина Патхак, Викас Ананд, Юнус Парвез
Описание: Красивая и амбициозная Рома решает, что карьера в кинематографе и моде для нее важнее всего, и бросает своего жениха Рави. Шокированный Рави предлагает руку и сердце ее сестре, тихой и скромной Риме, которая давно его любит. После свадьбы между Рави и Римой расцветает истинное, глубокое чувство любви. Но Рома возвращается и превращает жизнь родной сестры и бывшего жениха в настоящий кошмар...
Сэмпл: http://multi-up.com/882466
Качество видео: DVDRip
Формат видео: AVI
Видео: XviD build 50, 640x288 (2.22:1), 23.976 fps, 1321 kbps avg
Аудио: MPEG Layer 3, 48 kHz, 2/0 (L,R) ch, 128.00 kbps avg

MediaInfo

General
Complete name : D:\Lubovnij.treugolnik.1993.DVDRip-Dego.avi
Format : AVI
Format/Info : Audio Video Interleave
File size : 1.46 GiB
Duration : 2h 23mn
Overall bit rate : 1 459 Kbps
Writing application : VirtualDubMod 1.5.10.2 (build 2540/release)
Writing library : VirtualDubMod build 2540/release
Video
ID : 0
Format : MPEG-4 Visual
Format profile : AdvancedSimple@L5
Format settings, BVOP : Yes
Format settings, QPel : No
Format settings, GMC : No warppoints
Format settings, Matrix : Default (MPEG)
Codec ID : XVID
Codec ID/Hint : XviD
Duration : 2h 23mn
Bit rate : 1 322 Kbps
Width : 640 pixels
Height : 288 pixels
Display aspect ratio : 2.222
Frame rate : 23.976 fps
Resolution : 24 bits
Colorimetry : 4:2:0
Scan type : Progressive
Bits/(Pixel*Frame) : 0.299
Stream size : 1.32 GiB (91%)
Writing library : XviD 1.2.1 (UTC 2008-12-04)
Audio
ID : 1
Format : MPEG Audio
Format version : Version 1
Format profile : Layer 3
Codec ID : 55
Codec ID/Hint : MP3
Duration : 2h 23mn
Bit rate mode : Constant
Bit rate : 128 Kbps
Channel(s) : 2 channels
Sampling rate : 48.0 KHz
Resolution : 16 bits
Stream size : 131 MiB (9%)
Alignment : Aligned on interleaves
Interleave, duration : 42 ms (1.00 video frame)
Interleave, preload duration : 504 ms
Writing library : LAME3.98r
Encoding settings : -m s -V 4 -q 2 -lowpass 17 -b 128

Скриншоты

Скачать

Скачать торрент! Любовный треугольник / Aaina (Дипак Сарин / Deepak Sareen) [1993, Индия, Мелодрама, DVDRip] MVO (Red Media)

Как скачивать? · Что такое торрент? · Рейтинг и ограничения

Сайт не распространяет и не хранит электронные версии произведений, а лишь предоставляет доступ к создаваемому пользователями каталогу ссылок на торрент-файлы, которые содержат только списки хеш-сумм

[Профиль] [ЛС]

Ayush Malhotra

Стаж: 11 месяцев 23 дня

Сообщений: 1

Пост Пост: #2 от 26-Сен-2020 22:01 (спустя 7 лет 2 месяца)

[Цитировать]

Любовный треугольник / Aaina (Дипак Сарин / Deepak Sareen) [1993, Индия, Мелодрама, DVDRip] MVO (Red Media)
[Профиль] [ЛС]
Показать сообщения:    
Ответить на тему

Текущее время: Сегодня 03:53

Часовой пояс: GMT + 4



Вы не можете начинать темы
Вы не можете отвечать на сообщения
Вы не можете редактировать свои сообщения
Вы не можете удалять свои сообщения
Вы не можете голосовать в опросах
Вы не можете прикреплять файлы к сообщениям
Вы не можете скачивать файлы